#TITLE:Quadruple Guitar Demostration;
#SUBTITLE:;
#ARTIST:Michael Angelo;
#TITLETRANSLIT:;
#SUBTITLETRANSLIT:;
#ARTISTTRANSLIT:;
#CREDIT:;
#BANNER:banner.jpg;
#BACKGROUND:bg.jpg;
#LYRICSPATH:;
#CDTITLE:;
#MUSIC:QuadrupleGuitar.mp3;
#OFFSET:0.000;
#SAMPLESTART:30.099;
#SAMPLELENGTH:12.000;
#SELECTABLE:YES;
#BPMS:0.000=199.340;
#STOPS:;
#BGCHANGES:;
// cache tags:
#FIRSTBEAT:0.000;
#LASTBEAT:135.500;
#SONGFILENAME:Songs/Music V.I.P ^_^/Quadruple Guitar Demostration/Quadruple.sm;
#HASMUSIC:1;
#HASBANNER:1;
#MUSICLENGTH:42.639;
// end cache tags

//---------------dance-single - ----------------
#NOTES:
     dance-single:
     :
     Challenge:
     20:
     1.000,1.000,0.000,0.328,1.000,743.000,0.000,14.000,0.000,0.000:

0001
0010
0100
1000
0001
0010
0100
1000
0001
0010
0100
1000
0001
0010
0100
1000
0001
0010
0100
1000
0001
0010
0100
1000
0001
0010
0100
1000
0100
0010
0001
1000
,
0100
0010
0001
1000
0100
0010
0001
1000
0100
0010
0001
1000
0100
0010
0001
1000
0100
0010
0001
0010
0100
1000
0001
0010
0100
1000
0001
0010
0100
1000
0001
0010
,
0100
1000
0001
0010
0100
1000
0001
0010
0100
1000
0001
0010
0100
1000
0001
0010
0100
1000
0001
0010
0100
1000
0001
0010
0100
1000
0100
1000
0100
0010
0001
1000
,
0100
0010
0001
1000
0100
0010
0001
1000
0100
0010
0001
1000
0100
0010
0001
1000
0100
0010
0001
1000
0100
0010
0001
1000
0100
0010
0001
1000
0100
0010
0001
0010
,
0100
1000
0001
0010
0100
1000
0001
0010
0100
1000
0001
0010
0100
1000
0001
0010
0100
1000
0001
0010
0100
1000
0100
0010
0001
1000
0100
0010
0001
0010
0100
1000
,
0001
0000
0000
0000
0000
0000
0010
0000
0000
0000
0000
0000
0100
0000
0000
0000
0000
0000
1000
0000
0000
0000
0000
0000
0100
0000
0000
0000
0000
0000
0010
0000
0000
0000
0000
0000
0001
0000
0000
0000
0000
0000
0010
0000
0000
0000
0000
0000
0100
0000
0000
0000
0000
0000
1000
0000
0000
0000
0000
0000
0001
0000
0000
0000
0000
0000
0010
0000
0000
0000
0000
0000
0100
0000
0000
0000
0000
0000
1000
0000
0000
0000
0000
0000
0001
0000
0000
0000
0000
0000
0010
0000
0000
0000
0000
0000
0100
0000
0000
0000
0000
0000
1000
0000
0000
0000
0000
0000
0001
0000
0000
0000
0000
0000
0010
0000
0000
0000
0000
0000
0100
0000
0000
0000
0000
0000
1000
0000
0000
0000
0000
0000
0001
0000
0000
0000
0000
0000
0010
0000
0000
0000
0000
0000
0100
0000
0000
0000
0000
0000
0000
0000
0000
0000
0000
0000
0000
0000
0000
0000
0001
0000
0000
0000
0000
0000
0000
0000
0001
0000
0000
0000
0000
0000
0000
0000
0001
0000
0000
0000
0000
0000
0000
0000
0001
0000
0000
0000
0000
0000
0000
0000
,
0001
0010
0100
1000
0001
0001
0001
0001
0001
0010
0100
1000
0010
0100
0010
0001
0010
0100
1000
0001
0010
0100
1000
0001
,
0010
0100
1000
0001
0010
0100
1000
0000
0100
1000
0100
0010
0001
0010
0100
1000
0001
0010
0100
1000
0001
0010
0100
1000
,
0100
0010
0100
1000
0010
0100
1000
0100
1000
0100
1000
0100
0010
0010
0100
1000
0100
0010
0010
0001
0010
0100
0010
0002
,
0000
0000
0000
0000
0000
0000
0000
0000
0000
0000
0000
0000
0000
0000
0000
0000
0003
0010
0100
0010
0000
0010
0100
1000
,
0100
0010
0100
0001
0010
0100
1000
0100
1000
0100
1000
0010
0100
0010
0000
0010
0100
1000
0100
0010
0100
0001
0010
0100
,
1000
0100
1000
0100
1000
0010
0100
0010
0000
0010
0100
1000
0100
0010
0100
0001
0010
0100
1000
0100
1000
0100
1000
0010
,
0100
0010
0000
0010
0100
1000
0100
0010
0100
0001
0010
0100
1000
0100
1000
0100
1000
0001
0010
0100
0010
0100
1000
0100
,
1000
0100
1000
0100
1000
0100
1000
0010
1000
0010
1000
0010
1000
0100
1000
0100
0010
0100
1000
0010
1000
0100
1000
0010
,
1000
0100
1000
0010
0100
1000
0010
0100
1000
0100
1000
0100
1000
0100
1000
0010
2000
0000
0000
0000
0000
0000
0000
3000
,
1000
0100
0010
0001
0010
0100
1000
0100
2000
3100
0010
0100
1000
0100
0010
0100
1000
0010
0100
1000
0100
0010
0001
0010
,
0100
1000
0100
0010
0001
0100
0010
0001
0100
0010
0001
0100
0001
0010
0001
0100
0001
0010
0001
0010
0100
0002
0000
0000
,
0000
0000
0000
0000
0000
0000
0000
0013
0100
0002
0000
0000
,
0000
0000
0000
0000
,
0000
0000
0000
0000
0000
0000
0000
0000
0000
0000
0000
0000
0000
0000
0000
0000
0000
0103
0010
0001
0010
0100
1000
0100
,
0010
0001
0010
0100
1000
0200
0310
0100
1000
0100
0010
0100
1000
0001
0010
0100
1000
0100
0010
0001
0010
0100
1000
0010
,
0100
1000
0002
0013
0100
1000
0100
1000
0100
0010
1000
0100
0010
1000
0100
1000
0010
1000
0100
1000
0010
1000
0200
0000
,
0000
0000
0310
1000
0010
0100
0010
1000
0010
0100
1000
0100
1000
0010
1000
0100
1000
0010
1000
0100
1000
0010
1000
0100
,
0010
0001
0010
0001
0010
0100
0010
0100
0010
0001
0010
0100
0010
0100
1000
0100
1000
0100
0100
0010
0100
0010
1000
0010
,
1000
0100
0010
1000
0010
1000
0010
1000
0100
1000
0100
1000
0010
1000
0010
1000
0100
1000
0100
0010
2000
0000
0000
0000
,
0000
0000
0000
0000
0000
0000
0000
0000
0000
0000
0000
0000
0000
0000
3000
1000
0100
0010
0001
0010
0100
1000
0001
0010
,
0100
1000
0001
0010
0100
1000
0001
0010
0100
1000
0001
0010
0100
1000
0001
0010
0100
1000
0001
0010
0100
1000
0001
0010
,
0100
1000
0001
0010
0100
1000
0001
0010
0100
1000
0000
0000
0010
0010
0100
1000
0001
0010
0100
1000
0001
0010
0100
1000
,
0001
0010
0100
1000
0001
0010
0100
1000
0001
0010
0100
1000
0001
0010
0100
1000
0001
0010
0100
1000
0001
0020
0230
1300
,
0001
0010
0100
1000
0001
0010
0100
1000
0001
0020
0230
1300
0001
0010
0100
1000
0001
0010
0100
1000
0001
0010
0100
1000
,
0002
0013
0100
1000
0001
0010
0100
1000
0001
0010
0100
1000
0001
0010
0100
1000
0001
0010
0100
1000
0001
0010
0100
1000
,
0001
0010
0100
1000
0001
0010
0100
1000
0001
0010
0100
1000
0001
0010
0100
1000
0001
0010
0100
1000
0001
0010
0100
1000
,
0001
0010
0100
1000
0100
0010
0001
0010
0100
1000
0100
0010
0001
0010
0100
1000
0100
0010
0001
0010
0100
1000
0100
0010
,
0001
0010
0100
1000
0100
0010
0001
0010
0100
1000
0100
0010
0001
0010
0100
1000
0100
0010
0001
0010
0100
1000
0000
0000
;
